extratorrent - A Fan Made AlternativeLogin   |   Register
Important Information
Registrations are open now
-------------------------------------

Please click here to register with Extratorrent2 to recieve latest updates, add bookmarks and to post comments.

Friends
Friends

1) Filebebo
-------------------------------------
2) MoviesDig
-------------------------------------
3) Torrentz2.cc
-------------------------------------
4) Torrents.me

Extratorrent2 > Categories > Movies > Rampage.2018.720p.NEW.HDCAM.X264.HQMic.LLG torrent


Browse Movies torrents

Rampage.2018.720p.NEW.HDCAM.X264.HQMic.LLG torrent


Download torrent: Download Rampage.2018.720p.NEW.HDCAM.X264.HQMic.LLG torrent Magnet link Bookmark Torrent: Rampage.2018.720p.NEW.HDCAM.X264.HQMic.LLG   Rampage.2018.720p.NEW.HDCAM.X264.HQMic.LLG torrent
Info hash: 8394C7DFB862E1E5B26007BBA8837EB2B44ACC5D
Category: Categories > Movies
Trackers:
View all torrent trackers >
Health:
 seeds: 38 ,  leechers: 38 |  Update >
Torrent language: English English
Total Size: 1.2 GB
Files List:
2    View torrent files >
Uploader:
LifeLongg
Torrent added: April 17, 2018, 2:31 am
Tags: Action, Adventure, Sci-Fi
Users rating: ---, not rated. please login to rate.

Download Rampage.2018.720p.NEW.HDCAM.X264.HQMic.LLG torrent



Torrent Description





******************************Thumbnail:**********************



******************************Screenshots:********************

Screenshot 1

Screenshot 2

Screenshot 3

Screenshot 4

Screenshot 5

Screenshot 6

Screenshot 7

Screenshot 8

Screenshot 9

Screenshot 0

**************************************************************

Complete name : Rampage.2018.720p.NEW.HDCAM.X264.HQMic.LLG.mp4
Format : MPEG-4
Format profile : Base Media
Codec ID : isom (isom/iso2/avc1/mp41)
File size : 1.14 GiB
Duration : 1 h 40 min
Overall bit rate : 1 636 kb/s
Writing application : Lavf57.56.101

Video
ID : 1
Format : AVC
Format/Info : Advanced Video Codec
Format profile :
Format settings : CABAC / 4 Ref Frames
Format settings, CABAC : Yes
Format settings, RefFrames : 4 frames
Codec ID : avc1
Codec ID/Info : Advanced Video Coding
Duration : 1 h 40 min
Bit rate : 1 500 kb/s
Width : 1 280 pixels
Height : 608 pixels
Display aspect ratio : 2.105
Frame rate mode : Constant
Frame rate : 23.976 (23976/1000) FPS
Color space : YUV
Chroma subsampling : 4:2:0
Bit depth : 8 bits
Scan type : Progressive
Bits/(Pixel*Frame) : 0.080
Stream size : 1.05 GiB (92%)

Audio
ID : 2
Format : MPEG Audio
Format version : Version 1
Format profile : Layer 3
Format settings : Joint stereo / MS Stereo
Codec ID : mp4a-6B
Duration : 1 h 40 min
Bit rate mode : Constant
Bit rate : 128 kb/s
Channel(s) : 2 channels
Sampling rate : 44.1 kHz
Compression mode : Lossy
Stream size : 91.6 MiB (8%)
Writing library : LAME3.99.5
Default : Yes
Alternate group : 1


Download Rampage.2018.720p.NEW.HDCAM.X264.HQMic.LLG torrent


Related Torrents


Comments   (please login to add your comment!)


Home - Browse Torrents

Made with love by an Extratorrent Fan!